<?xml version="1.0" standalone="no"?>
<!DOCTYPE svg PUBLIC "-//W3C//DTD SVG 1.1//EN" "http://www.w3.org/Graphics/SVG/1.1/DTD/svg11.dtd">
<svg xmlns="http://www.w3.org/2000/svg">
<defs >
<font id="Poppins" horiz-adv-x="860" ><font-face
    font-family="Poppins Medium"
    units-per-em="1000"
    panose-1="0 0 6 0 0 0 0 0 0 0"
    ascent="1050"
    descent="-350"
    alphabetic="0" />
<glyph unicode=" " glyph-name="space" horiz-adv-x="300" />
<glyph unicode="!" glyph-name="exclam" horiz-adv-x="321" d="M289 695L190 210H95L168 695H289ZM81 -7T64 10T47 53Q47 88 73 113T134 139Q161 139 177 122T194 79Q194 44 168 19T108 -7Q81 -7 64 10Z" />
<glyph unicode="&quot;" glyph-name="quotedbl" horiz-adv-x="323" d="M226 797L178 592H100L123 797H226ZM377 797L329 592H251L274 797H377Z" />
<glyph unicode="#" glyph-name="numbersign" horiz-adv-x="872" d="M687 458L619 285H752L734 185H580L508 0H399L471 185H275L203 0H94L166 185H12L30 285H205L273 458H119L137 558H312L383 740H492L421 558H617L688 740H797L726 558H859L841 458H687ZM578 458H382L314
285H510L578 458Z" />
<glyph unicode="$" glyph-name="dollar" horiz-adv-x="650" d="M454 517Q456 548 440 572T392 606L353 390Q411 375 446 361T506 317T531 238Q531 217 527 198Q518 149 486 105T402 31T283 -5L269 -87H204L218 -6Q135 1 87 41T38 150Q38 167 41 185H163Q160 146
177 120T235 87L274 308Q216 323 180 337T119 382T93 462Q93 483 97 502Q111 586 179 640T344 703L358 784H423L409 703Q488 695 532 654T577 541Q577 525 576 517H454ZM212 494T212 489Q212 457 232 439T291 407L327 609Q282 603 252 578T214 508Q212 494 212
489ZM413 242T393 260T336 291L300 88Q351 97 382 131T413 211Q413 242 393 260Z" />
<glyph unicode="%" glyph-name="percent" horiz-adv-x="722" d="M99 624T149 665T266 706Q324 706 359 674T394 586Q394 571 391 553Q379 482 329 441T212 399Q154 399 119 431T84 519Q84 535 87 553Q99 624 149 665ZM687 696L165 0H53L575 696H687ZM190 637T176
553Q173 537 173 524Q173 468 224 468Q253 468 273 489T302 553Q305 568 305 581Q305 609 292 623T254 637Q190 637 176 553ZM364 215T414 256T531 297Q588 297 623 266T658 178Q658 162 655 144Q643 73 593 32T477 -10Q419 -10 384 22T349 110Q349 126 352 144Q364
215 414 256ZM488 228T468 208T440 144Q437 128 437 115Q437 87 450 74T488 60Q550 60 566 144Q569 159 569 172Q569 200 556 214T518 228Q488 228 468 208Z" />
<glyph unicode="&amp;" glyph-name="ampersand" horiz-adv-x="775" d="M574 168L714 0H565L494 86Q435 36 372 12T236 -13Q135 -13 77 34T19 165Q19 249 74 315T224 418Q191 468 191 514Q191 571 219 616T297 686T413 711Q488 711 530 673T572 578Q572 565 569
550H455Q456 555 456 564Q456 589 440 603T395 618Q357 618 332 593T307 534Q307 512 318 489T357 429L509 246L601 363H724L607 209L574 168ZM347 84T433 161L281 346Q214 321 175 280T136 183Q136 139 167 112T253 84Q347 84 433 161Z" />
<glyph unicode="&apos;" glyph-name="quotesingle" horiz-adv-x="172" d="M226 797L178 592H100L123 797H226Z" />
<glyph unicode="(" glyph-name="parenleft" horiz-adv-x="492" d="M186 -117T156 -19T125 196Q125 336 165 475T282 734T463 934H581L579 923Q476 841 399 727T279 482T237 220Q237 108 269 7T366 -175L364 -186H246Q186 -117 156 -19Z" />
<glyph unicode=")" glyph-name="parenright" horiz-adv-x="492" d="M-34 -186L-32 -175Q117 -46 202 136T287 509Q287 628 251 735T141 923L143 934H261Q330 861 364 757T399 530Q399 397 361 262T251 10T84 -186H-34Z" />
<glyph unicode="*" glyph-name="asterisk" horiz-adv-x="504" d="M460 679L491 599L345 548L473 497L413 415L314 505L310 360H218L262 505L132 413L99 498L244 549L117 598L177 680L278 590L284 736H377L329 590L460 679Z" />
<glyph unicode="+" glyph-name="plus" horiz-adv-x="714" d="M615 310H414L378 106H270L306 310H105L123 412H324L360 616H468L432 412H633L615 310Z" />
<glyph unicode="," glyph-name="comma" horiz-adv-x="225" d="M172 137L3 -139H-71L48 137H172Z" />
<glyph unicode="-" glyph-name="hyphen" horiz-adv-x="585" d="M519 410L502 314H91L108 410H519Z" />
<glyph unicode="." glyph-name="period" horiz-adv-x="241" d="M41 -7T24 10T7 53Q7 88 33 113T94 139Q121 139 137 122T154 79Q154 44 128 19T68 -7Q41 -7 24 10Z" />
<glyph unicode="/" glyph-name="slash" horiz-adv-x="514" d="M560 944L90 -175H-22L447 944H560Z" />
<glyph unicode="0" glyph-name="zero" horiz-adv-x="641" d="M103 535T178 632T397 729Q508 729 557 669T606 500Q606 442 593 366Q563 196 488 99T269 2Q158 2 109 62T60 232Q60 288 73 366Q103 535 178 632ZM494 446T494 490Q494 554 468 589T379 625Q316 625
278 590T219 500T185 366Q171 289 171 242Q171 177 197 142T287 106Q350 106 388 141T447 231T481 366Q494 446 494 490Z" />
<glyph unicode="1" glyph-name="one" horiz-adv-x="350" d="M100 606L119 710H327L201 0H86L193 606H100Z" />
<glyph unicode="2" glyph-name="two" horiz-adv-x="577" d="M104 159Q213 240 277 292T387 401T443 513Q446 530 446 545Q446 588 422 612T346 636Q288 636 249 599T196 498H86Q109 612 185 672T363 733Q458 733 509 687T561 563Q561 539 557 518Q545 449 497
384T390 267T240 146L187 105H504L487 10H1L16 93L104 159Z" />
<glyph unicode="3" glyph-name="three" horiz-adv-x="594" d="M125 642T200 694T377 746Q470 746 520 703T570 591Q570 574 567 556Q556 494 516 450T426 391V387Q472 372 497 337T522 246Q522 221 518 200Q502 110 431 53T248 -4Q150 -4 91 42T32 176Q32 199
34 211H144Q143 206 143 196Q143 149 174 120T263 91Q325 91 364 124T412 211Q415 228 415 241Q415 294 375 317T253 340H227L244 434H271Q352 435 399 461T456 543Q458 559 458 566Q458 604 432 626T356 648Q300 648 264 620T214 549H103Q125 642 200 694Z" />
<glyph unicode="4" glyph-name="four" horiz-adv-x="647" d="M21 152L36 238L457 720H595L513 251H606L588 152H495L468 0H356L383 152H21ZM468 604L170 251H406L468 604Z" />
<glyph unicode="5" glyph-name="five" horiz-adv-x="639" d="M590 631H255L220 432Q246 460 290 479T382 498Q485 498 531 445T578 311Q578 285 573 255Q553 141 476 71T276 0Q167 0 111 54T57 197H168Q171 150 204 123T294 95Q365 95 408 138T464 252Q468 272
468 293Q468 345 438 373T348 401Q299 401 262 377T201 310H93L167 731H607L590 631Z" />
<glyph unicode="6" glyph-name="six" horiz-adv-x="642" d="M496 606T471 629T394 652Q315 652 266 592T189 391Q223 435 277 459T390 483Q476 483 526 435T576 301Q576 268 571 243Q559 173 522 118T425 32T289 0Q174 0 124 57T74 226Q74 290 90 381Q154 747
412 747Q480 747 524 722T587 654T604 560H499Q496 606 471 629ZM287 387T238 351T177 245Q174 227 174 209Q174 156 206 126T300 95Q363 95 406 134T461 238Q465 257 465 278Q465 329 436 358T348 387Q287 387 238 351Z" />
<glyph unicode="7" glyph-name="seven" horiz-adv-x="560" d="M583 641L192 0H67L470 631H100L116 726H598L583 641Z" />
<glyph unicode="8" glyph-name="eight" horiz-adv-x="638" d="M122 434T122 519Q122 536 125 555Q135 610 170 654T263 725T400 752Q503 752 555 707T608 590Q608 573 605 555Q595 499 559 457T472 391Q517 373 542 336T567 246Q567 234 563 206Q551 138 509 88T403
10T264 -18Q163 -18 103 30T42 163Q42 186 46 206Q58 274 99 322T200 391Q122 434 122 519ZM323 657T283 627T233 540Q231 526 231 520Q231 478 261 453T343 427Q385 427 420 445T475 495T496 566Q496 610 467 633T383 657Q323 657 283 627ZM261 341T214 308T155
210Q153 201 153 183Q153 134 186 106T281 77Q332 77 371 98T432 156T454 239Q454 289 420 315T327 341Q261 341 214 308Z" />
<glyph unicode="9" glyph-name="nine" horiz-adv-x="635" d="M188 96T299 96Q370 96 413 152T480 343Q450 309 403 291T305 272Q217 272 163 319T109 453Q109 473 114 505Q134 615 210 680T399 746Q505 746 552 692T600 527Q600 462 585 378Q562 249 527 167T431
43T276 1Q177 1 128 50T79 176Q79 191 80 198H185Q188 96 299 96ZM402 368T443 405T495 505Q499 531 499 542Q499 594 469 622T385 651Q322 651 279 612T224 508Q221 492 221 476Q221 428 251 398T342 368Q402 368 443 405Z" />
<glyph unicode=":" glyph-name="colon" horiz-adv-x="245" d="M41 -7T24 10T7 53Q7 88 33 113T94 139Q121 139 137 122T154 79Q154 44 128 19T68 -7Q41 -7 24 10ZM41 413T24 430T7 473Q7 508 33 533T94 559Q121 559 137 542T154 499Q154 464 128 439T68 413Q41
413 24 430Z" />
<glyph unicode=";" glyph-name="semicolon" horiz-adv-x="304" d="M153 413T136 430T119 473Q119 508 145 533T206 559Q233 559 249 542T266 499Q266 464 240 439T180 413Q153 413 136 430ZM199 137L30 -139H-44L75 137H199Z" />
<glyph unicode="&lt;" glyph-name="less" horiz-adv-x="612" d="M300 134L110 361L380 588H524L253 361L444 134H300Z" />
<glyph unicode="=" glyph-name="equal" horiz-adv-x="774" d="M694 525L676 424H144L162 525H694ZM654 298L636 197H104L122 298H654Z" />
<glyph unicode="&gt;" glyph-name="greater" horiz-adv-x="590" d="M164 588H308L498 361L228 134H84L355 361L164 588Z" />
<glyph unicode="?" glyph-name="question" horiz-adv-x="538" d="M424 705T475 662T527 540Q527 516 523 496Q505 395 432 344T253 293L235 214H136L159 371H192Q288 371 344 397T414 496Q416 505 416 522Q416 563 391 586T319 609Q265 609 229 580T183 499H76Q86
559 122 606T213 679T335 705Q424 705 475 662ZM118 -7T101 10T84 53Q84 88 110 113T171 139Q198 139 214 122T231 79Q231 44 205 19T145 -7Q118 -7 101 10Z" />
<glyph unicode="@" glyph-name="at" horiz-adv-x="1026" d="M702 646T785 604T911 487T955 311Q955 231 928 158T849 39T727 -7Q676 -7 647 15T611 79Q580 39 533 16T435 -7Q358 -7 315 39T271 166Q271 242 302 308T391 413T519 453Q606 453 641 394L650 444H749L699
158Q696 137 696 121Q696 95 706 82T744 69Q782 69 809 106T849 199T863 306Q863 433 789 500T574 567Q456 567 363 511T216 357T163 139Q163 11 239 -56T456 -123Q551 -123 622 -88L637 -164Q546 -203 433 -203Q324 -203 242 -162T115 -46T70 130Q70 273 136 391T321
577T588 646Q702 646 785 604ZM512 81T546 105T601 170T621 257Q621 305 595 335T520 366Q477 366 445 340T395 271T377 183Q377 136 400 109T470 81Q512 81 546 105Z" />
<glyph unicode="A" glyph-name="A" horiz-adv-x="697" d="M467 142H176L101 0H-18L354 696H486L612 0H492L467 142ZM452 231L395 558L223 231H452Z" />
<glyph unicode="B" glyph-name="B" horiz-adv-x="630" d="M594 456T555 416T459 357Q505 349 535 310T565 218Q565 202 562 187Q553 134 518 92T427 25T301 0H23L146 695H411Q506 695 556 654T607 548Q607 533 604 516Q594 456 555 416ZM488 516T488 523Q488 562
461 584T385 606H244L208 400H349Q405 400 441 427T486 502Q488 516 488 523ZM452 215T452 222Q452 263 422 287T342 311H192L153 89H307Q365 89 403 118T450 199Q452 215 452 222Z" />
<glyph unicode="C" glyph-name="C" horiz-adv-x="773" d="M65 451T126 532T277 658T464 704Q575 704 652 650T751 495H614Q595 547 552 573T446 600Q377 600 318 569T218 481T164 349Q159 316 159 293Q159 203 213 150T357 97Q420 97 473 123T562 202H699Q642
102 546 48T339 -6Q253 -6 185 30T79 131T41 281Q41 313 47 349Q65 451 126 532Z" />
<glyph unicode="D" glyph-name="D" horiz-adv-x="709" d="M470 695T541 662T649 567T687 420Q687 381 680 345Q661 239 602 161T452 42T250 0H23L146 695H373Q470 695 541 662ZM387 87T464 156T563 345Q569 380 569 410Q569 502 515 552T357 603H244L153 87H266Q387
87 464 156Z" />
<glyph unicode="E" glyph-name="E" horiz-adv-x="524" d="M244 607L207 396H447L432 308H192L153 89H423L407 0H23L146 696H530L514 607H244Z" />
<glyph unicode="F" glyph-name="F" horiz-adv-x="515" d="M555 695L539 606H244L207 395H437L421 307H191L137 0H23L146 695H555Z" />
<glyph unicode="G" glyph-name="G" horiz-adv-x="773" d="M65 451T126 532T277 658T464 704Q575 704 652 650T751 495H614Q595 547 552 573T446 600Q377 600 318 569T218 481T164 349Q159 316 159 293Q159 203 213 150T357 97Q450 97 518 149T614 292H353L369
381H752L736 292Q711 211 652 143T512 35T339 -6Q253 -6 185 30T79 131T41 281Q41 313 47 349Q65 451 126 532Z" />
<glyph unicode="H" glyph-name="H" horiz-adv-x="705" d="M701 695L578 0H464L518 307H191L137 0H23L146 695H260L207 395H534L587 695H701Z" />
<glyph unicode="I" glyph-name="I" horiz-adv-x="264" d="M260 695L137 0H23L146 695H260Z" />
<glyph unicode="J" glyph-name="J" horiz-adv-x="564" d="M525 695L437 194Q420 101 354 47T196 -7Q116 -7 70 34T23 149Q23 173 27 194H142Q140 185 140 168Q140 134 158 114T214 94Q258 94 285 121T322 194L410 695H525Z" />
<glyph unicode="K" glyph-name="K" horiz-adv-x="633" d="M309 347L555 0H406L192 311L137 0H23L146 695H260L204 378L530 695H673L309 347Z" />
<glyph unicode="L" glyph-name="L" horiz-adv-x="444" d="M153 87H388L372 0H23L146 695H260L153 87Z" />
<glyph unicode="M" glyph-name="M" horiz-adv-x="882" d="M878 695L755 0H641L725 476L429 0H350L221 476L137 0H23L146 695H269L417 150L756 695H878Z" />
<glyph unicode="N" glyph-name="N" horiz-adv-x="721" d="M594 0H480L229 519L137 0H23L146 696H260L512 178L603 696H717L594 0Z" />
<glyph unicode="O" glyph-name="O" horiz-adv-x="784" d="M255 -7T188 30T84 134T47 286Q47 405 100 500T248 650T460 704Q549 704 616 667T720 564T757 412Q757 293 704 197T556 47T343 -7Q255 -7 188 30ZM441 96T504 138T603 250T639 404Q639 495 588 547T444
600Q362 600 299 559T200 447T165 293Q165 202 216 149T359 96Q441 96 504 138Z" />
<glyph unicode="P" glyph-name="P" horiz-adv-x="595" d="M586 435T553 388T459 312T313 282H187L137 0H23L146 695H386Q491 695 545 649T599 527Q599 514 595 488Q586 435 553 388ZM394 371T431 402T478 488Q481 503 481 517Q481 559 454 582T370 606H244L203
371H329Q394 371 431 402Z" />
<glyph unicode="Q" glyph-name="Q" horiz-adv-x="787" d="M757 291T702 195T552 45L684 -126H539L442 4Q393 -7 343 -7Q255 -7 188 30T84 134T47 286Q47 405 100 500T248 650T460 704Q549 704 616 667T720 564T757 412Q757 291 702 195ZM165 202T216 149T359 96Q441
96 504 138T603 250T639 404Q639 495 588 547T444 600Q362 600 299 559T200 447T165 293Q165 202 216 149Z" />
<glyph unicode="R" glyph-name="R" horiz-adv-x="632" d="M491 695T545 648T599 526Q599 513 595 487Q583 420 534 364T399 288L520 0H384L274 278H186L137 0H23L146 695H386Q491 695 545 648ZM481 502T481 516Q481 559 454 582T370 606H244L202 368H328Q392 368
430 400T478 487Q481 502 481 516Z" />
<glyph unicode="S" glyph-name="S" horiz-adv-x="599" d="M211 -7T160 13T79 73T49 167Q49 174 51 192H164Q160 146 191 116T280 85Q342 85 377 110T412 184Q412 213 395 233T351 268T277 301Q215 327 178 348T115 406T88 499Q88 561 120 607T208 679T336 704Q407
704 458 681T536 615T560 515H440Q444 556 415 583T331 611Q273 611 239 585T204 513Q204 485 221 465T266 430T339 395Q401 367 438 345T503 286T530 193Q530 135 498 90T408 19T275 -7Q211 -7 160 13Z" />
<glyph unicode="T" glyph-name="T" horiz-adv-x="564" d="M595 695L579 606H394L287 0H173L280 606H94L110 695H595Z" />
<glyph unicode="U" glyph-name="U" horiz-adv-x="690" d="M259 695L181 254Q177 234 177 213Q177 154 211 125T310 95Q385 95 433 135T496 254L574 695H688L610 254Q595 169 548 110T433 22T291 -7Q189 -7 126 45T62 196Q62 229 67 254L145 695H259Z" />
<glyph unicode="V" glyph-name="V" horiz-adv-x="694" d="M212 695L315 118L624 695H745L361 0H229L90 695H212Z" />
<glyph unicode="W" glyph-name="W" horiz-adv-x="999" d="M1051 695L722 0H593L539 526L292 0L164 -1L90 695H211L255 129L511 695H639L685 132L929 695H1051Z" />
<glyph unicode="X" glyph-name="X" horiz-adv-x="660" d="M404 347L558 0H430L318 253L126 0H-2L276 347L121 695H249L362 442L554 695H682L404 347Z" />
<glyph unicode="Y" glyph-name="Y" horiz-adv-x="605" d="M661 695L353 252L308 0H194L239 252L86 695H213L313 356L533 695H661Z" />
<glyph unicode="Z" glyph-name="Z" horiz-adv-x="558" d="M151 99H474L456 0H-2L14 89L425 596H103L121 695H579L563 606L151 99Z" />
<glyph unicode="[" glyph-name="bracketleft" horiz-adv-x="485" d="M471 944L454 850H353L189 -81H290L273 -176H65L263 944H471Z" />
<glyph unicode="\" glyph-name="backslash" horiz-adv-x="532" d="M257 -175L195 944H307L369 -175H257Z" />
<glyph unicode="]" glyph-name="bracketright" horiz-adv-x="484" d="M255 -186H47L63 -91H164L329 840H228L244 934H452L255 -186Z" />
<glyph unicode="^" glyph-name="asciicircum" horiz-adv-x="654" d="M132 168H14L344 696H452L597 168H478L375 558L132 168Z" />
<glyph unicode="_" glyph-name="underscore" horiz-adv-x="798" d="M625 -40L607 -146H49L67 -40H625Z" />
<glyph unicode="`" glyph-name="grave" horiz-adv-x="254" d="M298 674L283 590L82 699L99 796L298 674Z" />
<glyph unicode="a" glyph-name="a" horiz-adv-x="678" d="M49 361T94 425T206 524T344 560Q409 560 453 535T519 471L533 551H648L551 0H436L451 82Q415 43 361 17T242 -9Q180 -9 132 19T56 98T28 217Q28 247 34 278Q49 361 94 425ZM489 295T489 317Q489 384 450
422T351 461Q307 461 265 440T192 377T151 278Q147 259 147 237Q147 169 186 130T285 90Q329 90 371 112T444 176T485 276Q489 295 489 317Z" />
<glyph unicode="b" glyph-name="b" horiz-adv-x="678" d="M256 509T311 534T428 560Q492 560 540 533T616 457T643 340Q643 311 637 278Q622 195 577 130T466 28T328 -9Q264 -9 219 16T151 80L137 0H23L154 740H268L220 469Q256 509 311 534ZM525 297T525 319Q525
386 486 423T386 461Q343 461 301 439T227 375T186 276Q182 257 182 235Q182 168 221 129T320 90Q364 90 406 112T480 178T521 278Q525 297 525 319Z" />
<glyph unicode="c" glyph-name="c" horiz-adv-x="600" d="M49 361T94 425T207 525T354 560Q454 560 511 513T576 377H453Q445 418 416 441T337 464Q267 464 217 415T151 276Q146 244 146 224Q146 158 179 123T271 87Q370 87 417 174H540Q501 90 427 41T254 -9Q150
-9 89 50T28 212Q28 243 34 276Q49 361 94 425Z" />
<glyph unicode="d" glyph-name="d" horiz-adv-x="678" d="M49 361T94 425T206 524T345 560Q399 560 447 537T520 474L567 740H682L551 0H436L451 83Q415 42 362 17T244 -9Q181 -9 132 19T56 98T28 217Q28 247 34 278Q49 361 94 425ZM489 295T489 317Q489 384 450
422T351 461Q307 461 265 440T192 377T151 278Q147 259 147 237Q147 169 186 130T285 90Q329 90 371 112T444 176T485 276Q489 295 489 317Z" />
<glyph unicode="e" glyph-name="e" horiz-adv-x="617" d="M462 560T523 502T585 346Q585 323 580 291Q576 269 566 237H145Q144 230 144 216Q144 157 180 122T276 87Q369 87 419 164H542Q504 88 430 40T259 -9Q190 -9 138 18T57 95T28 214Q28 243 34 276Q49 361
95 425T209 525T359 560Q462 560 523 502ZM468 337T468 345Q468 400 432 432T337 464Q276 464 227 425T160 319H466Q468 337 468 345Z" />
<glyph unicode="f" glyph-name="f" horiz-adv-x="332" d="M314 677T289 657T256 590L249 551H351L335 458H233L152 0H37L118 458H53L69 551H134L141 590Q158 685 216 728T382 772L366 677Q314 677 289 657Z" />
<glyph unicode="g" glyph-name="g" horiz-adv-x="678" d="M408 560T453 535T519 471L533 551H648L550 -9Q536 -85 494 -144T385 -238T234 -272Q161 -272 106 -249T23 -181T-1 -77H112Q117 -120 155 -146T252 -173Q321 -173 371 -131T435 -9L451 83Q415 44 361
18T244 -9Q181 -9 132 19T56 98T28 217Q28 247 34 278Q49 361 94 425T206 524T344 560Q408 560 453 535ZM489 295T489 317Q489 384 450 422T351 461Q307 461 265 440T192 377T151 278Q147 259 147 237Q147 169 186 130T285 90Q329 90 371 112T444 176T485 276Q489
295 489 317Z" />
<glyph unicode="h" glyph-name="h" horiz-adv-x="649" d="M490 560T540 514T590 381Q590 358 585 325L527 0H414L469 308Q473 336 473 348Q473 403 443 432T358 461Q293 461 249 422T192 308V310L137 0H23L154 740H268L223 487Q258 522 306 541T407 560Q490 560 540 514Z" />
<glyph unicode="i" glyph-name="i" horiz-adv-x="264" d="M164 624T147 641T130 684Q130 719 156 744T217 770Q244 770 260 753T277 710Q277 675 251 650T191 624Q164 624 147 641ZM234 551L137 0H23L120 551H234Z" />
<glyph unicode="j" glyph-name="j" horiz-adv-x="264" d="M164 624T147 641T130 684Q130 719 156 744T217 770Q244 770 260 753T277 710Q277 675 251 650T191 624Q164 624 147 641ZM118 -108Q104 -189 57 -225T-67 -262H-126L-109 -166H-70Q-35 -166 -18 -153T4
-108L120 551H234L118 -108Z" />
<glyph unicode="k" glyph-name="k" horiz-adv-x="554" d="M289 275L495 0H341L179 237L137 0H23L154 740H268L192 311L434 551H592L289 275Z" />
<glyph unicode="l" glyph-name="l" horiz-adv-x="264" d="M268 740L137 0H23L154 740H268Z" />
<glyph unicode="m" glyph-name="m" horiz-adv-x="1039" d="M876 560T928 513T980 380Q980 357 975 325L917 0H804L859 308Q863 336 863 348Q863 403 833 432T748 461Q683 461 639 422T582 308L527 0H414L469 308Q473 336 473 348Q473 403 443 432T358 461Q293
461 249 422T192 308V311L137 0H23L120 551H234L223 487Q256 521 302 540T399 560Q465 560 512 532T579 451Q612 501 670 530T789 560Q876 560 928 513Z" />
<glyph unicode="n" glyph-name="n" horiz-adv-x="649" d="M487 560T538 514T590 380Q590 358 585 325L527 0H414L469 308Q473 336 473 348Q473 403 443 432T358 461Q293 461 249 422T192 308V311L137 0H23L120 551H234L223 487Q257 521 303 540T400 560Q487 560 538 514Z" />
<glyph unicode="o" glyph-name="o" horiz-adv-x="638" d="M194 -9T141 20T59 102T29 223Q29 316 72 393T192 515T363 560Q433 560 487 531T571 449T602 327Q602 234 557 157T435 36T264 -9Q194 -9 141 20ZM335 87T382 119T457 205T484 320Q484 389 445 426T347
464Q289 464 244 432T173 345T147 228Q147 161 183 124T278 87Q335 87 382 119Z" />
<glyph unicode="p" glyph-name="p" horiz-adv-x="678" d="M256 508T310 534T428 560Q491 560 540 533T616 456T643 339Q643 310 637 278Q622 195 577 130T466 28T328 -9Q265 -9 221 16T151 80L91 -262H-23L120 551H234L220 470Q256 508 310 534ZM525 297T525 319Q525
386 486 423T386 461Q343 461 301 439T227 375T186 276Q182 257 182 235Q182 168 221 129T320 90Q364 90 406 112T480 178T521 278Q525 297 525 319Z" />
<glyph unicode="q" glyph-name="q" horiz-adv-x="678" d="M49 361T94 425T206 524T345 560Q409 560 454 534T519 471L533 551H648L505 -262H390L450 80Q417 44 362 18T241 -9Q179 -9 131 19T56 98T28 217Q28 247 34 278Q49 361 94 425ZM489 295T489 317Q489 384
450 422T351 461Q307 461 265 440T192 377T151 278Q147 259 147 237Q147 169 186 130T285 90Q329 90 371 112T444 176T485 276Q489 295 489 317Z" />
<glyph unicode="r" glyph-name="r" horiz-adv-x="384" d="M251 504T297 532T401 560L380 442H351Q285 442 245 409T189 295L137 0H23L120 551H234L217 454Q251 504 297 532Z" />
<glyph unicode="s" glyph-name="s" horiz-adv-x="534" d="M169 -9T122 10T48 65T21 147Q21 155 23 169H134Q130 131 157 106T233 81Q281 81 312 98T343 148Q343 176 318 193T236 231Q183 252 150 270T93 319T69 398Q69 446 96 482T173 539T287 560Q345 560 390
541T461 486T487 404Q487 390 486 383H378Q382 422 356 446T280 470Q237 470 211 452T184 403Q184 372 211 354T294 313Q345 293 377 275T432 227T455 152Q455 103 426 67T344 11T226 -9Q169 -9 122 10Z" />
<glyph unicode="t" glyph-name="t" horiz-adv-x="372" d="M183 153Q181 139 181 135Q181 114 194 105T237 95H307L290 0H200Q134 0 99 26T64 111Q64 133 68 153L122 458H57L73 551H139L163 688H278L254 551H387L371 458H237L183 153Z" />
<glyph unicode="u" glyph-name="u" horiz-adv-x="649" d="M619 551L522 0H408L419 65Q386 31 340 12T244 -8Q157 -8 105 39T53 172Q53 195 58 227L115 551H228L174 244Q170 216 170 204Q170 149 200 120T285 91Q348 91 392 128T450 237L505 551H619Z" />
<glyph unicode="v" glyph-name="v" horiz-adv-x="576" d="M254 102L489 551H612L305 0H167L55 551H177L254 102Z" />
<glyph unicode="w" glyph-name="w" horiz-adv-x="825" d="M860 551L592 0H472L434 407L250 0H130L55 551H171L209 108L403 551H522L557 110L748 551H860Z" />
<glyph unicode="x" glyph-name="x" horiz-adv-x="499" d="M309 280L437 0H308L222 187L77 0H-42L184 271L55 551H184L270 364L415 551H534L309 280Z" />
<glyph unicode="y" glyph-name="y" horiz-adv-x="582" d="M182 551L263 131L498 551H616L136 -259H18L177 9L55 551H182Z" />
<glyph unicode="z" glyph-name="z" horiz-adv-x="471" d="M141 93H391L374 0H-8L9 93L324 458H73L89 551H471L455 458L141 93Z" />
<glyph unicode="{" glyph-name="braceleft" horiz-adv-x="516" d="M151 417Q200 422 229 446T266 509Q273 549 281 643Q282 658 287 704T298 785Q310 856 358 896T475 936H542L525 837H481Q449 837 431 823T407 776Q402 744 394 660Q383 548 375 505Q366 454 335
420T249 375L248 373Q292 364 312 342T332 283Q332 245 293 89Q282 43 273 3T264 -51Q264 -89 318 -89H362L344 -188H277Q218 -188 184 -158T150 -71Q150 -45 160 1T190 122Q202 166 211 206T221 262Q221 322 136 331L151 417Z" />
<glyph unicode="|" glyph-name="bar" horiz-adv-x="324" d="M147 -113H33L195 801H309L147 -113Z" />
<glyph unicode="}" glyph-name="braceright" horiz-adv-x="516" d="M351 326T322 302T285 239Q278 199 270 105Q269 90 264 44T253 -37Q241 -108 192 -148T75 -188H8L26 -89H70Q102 -89 120 -75T143 -28Q151 19 158 99Q160 114 164 161T175 243Q184 294 216 328T302
373L303 375Q218 393 218 475Q218 489 221 505Q230 555 255 649Q281 752 285 776Q287 790 287 794Q287 837 233 837H189L206 936H273Q332 936 366 906T401 819Q401 803 398 785Q387 725 363 640Q337 538 332 509Q330 497 330 491Q330 460 352 441T415 417L400 331Q351
326 322 302Z" />
<glyph unicode="~" glyph-name="asciitilde" horiz-adv-x="553" d="M56 322T104 362T214 403Q242 403 262 394T307 367Q328 352 342 345T374 338Q399 338 421 354T453 401H536Q507 317 458 277T347 236Q319 236 300 245T255 272Q236 286 221 293T188 301Q162 301
140 285T108 238H26Q56 322 104 362Z" />
<glyph unicode="&#xa0;" glyph-name="uni00A0" horiz-adv-x="300" />
<glyph unicode="&#xa1;" glyph-name="exclamdown" horiz-adv-x="361" d="M256 567T272 551T289 507Q289 472 263 447T202 421Q175 421 159 438T142 481Q142 516 168 541T228 567Q256 567 272 551ZM47 -135L146 350H241L168 -135H47Z" />
<glyph unicode="&#xa2;" glyph-name="cent" horiz-adv-x="690" d="M282 427T232 382T168 259Q164 239 164 218Q164 158 198 125T294 92Q398 92 438 174H544Q524 103 461 56T309 0L294 -88H229L244 -1Q151 8 103 63T55 203Q55 227 60 259Q79 366 151 438T336 520L351
607H416L401 520Q485 512 532 464T574 345H468Q463 384 435 405T353 427Q282 427 232 382Z" />
<glyph unicode="&#xa3;" glyph-name="sterling" horiz-adv-x="646" d="M486 508Q489 525 489 539Q489 625 392 625Q338 625 300 594T250 497Q246 476 246 450Q246 425 252 381H447L433 302H262Q262 280 259 259Q242 162 162 91H522L506 -2H43L34 60Q84 105 112
149T151 260Q156 283 154 302H44L58 381H143Q138 413 138 443Q138 476 143 503Q161 604 234 662T408 721Q502 721 548 675T594 552Q594 538 590 508H486Z" />
<glyph unicode="&#xa4;" glyph-name="currency" horiz-adv-x="548" d="M462 481Q478 452 478 412Q478 395 475 377Q465 319 426 274L474 215L415 164L364 225Q314 199 255 199Q198 199 159 224L88 164L46 215L115 274Q101 304 101 340Q101 358 104 377Q114 437
153 482L104 541L164 592L215 530Q263 555 320 555Q377 555 418 530L491 592L532 541L462 481ZM191 362T191 348Q191 308 212 287T267 266Q307 266 341 295T384 377Q387 392 387 404Q387 444 365 466T308 489Q268 489 236 460T194 377Q191 362 191 348Z" />
<glyph unicode="&#xa5;" glyph-name="yen" horiz-adv-x="605" d="M452 395H578L564 313L394 311L353 252L348 222H547L533 140H333L308 0H194L219 140H19L33 222H234L239 252L218 311L50 313L64 395H190L86 695H213L313 356L533 695H661L452 395Z" />
<glyph unicode="&#xa6;" glyph-name="brokenbar" horiz-adv-x="324" d="M195 801H309L240 413H126L195 801ZM147 -113H33L102 275H216L147 -113Z" />
<glyph unicode="&#xa7;" glyph-name="section" horiz-adv-x="578" d="M427 535L428 548Q428 582 408 601T346 621Q298 621 269 602T232 544Q231 539 231 531Q231 512 243 498T285 468T370 432Q451 401 491 364T531 274Q531 261 528 244Q519 191 481 150T378 84Q411
63 428 38T446 -21Q446 -71 415 -115T328 -185T201 -212Q117 -212 67 -177T17 -77Q17 -64 20 -47H134L133 -60Q133 -94 153 -113T215 -133Q263 -133 292 -114T328 -56Q330 -46 330 -42Q330 -15 301 5T191 56Q109 87 69 124T29 215Q29 229 32 244Q42 298 80 339T183
404Q150 425 132 450T114 509Q114 559 145 603T233 673T360 700Q444 700 494 665T544 564Q544 550 541 535H427ZM413 299T382 323T298 348Q254 348 220 332T167 288T148 228Q148 190 179 165T264 140Q307 140 341 157T394 201T413 261Q413 299 382 323Z" />
<glyph unicode="&#xa8;" glyph-name="dieresis" horiz-adv-x="312" d="M106 620T92 634T77 669Q77 697 98 718T149 740Q171 740 185 726T199 691Q199 662 178 641T128 620Q106 620 92 634ZM278 620T264 634T249 669Q249 697 270 718T321 740Q343 740 357 726T371
691Q371 662 350 641T300 620Q278 620 264 634Z" />
<glyph unicode="&#xa9;" glyph-name="copyright" horiz-adv-x="789" d="M556 704T622 669T724 570T760 422Q760 384 753 348Q735 245 677 164T531 37T342 -9Q253 -9 187 26T85 125T49 273Q49 312 56 348Q74 452 132 532T278 658T467 704Q556 704 622 669ZM369
659T295 621T171 512T106 348Q99 304 99 277Q99 166 165 101T350 36Q440 36 514 75T638 184T703 348Q710 392 710 420Q710 531 644 595T460 659Q369 659 295 621ZM381 578T327 550T234 469T184 349Q179 321 179 299Q179 217 229 168T361 119Q437 119 499 159T592
266H488Q470 234 443 217T376 200Q332 200 307 227T281 306Q281 329 285 349Q297 421 336 459T428 497Q466 497 489 480T517 431H621Q615 501 568 539T442 578Q381 578 327 550Z" />
<glyph unicode="&#xaa;" glyph-name="ordfeminine" horiz-adv-x="456" d="M82 582T111 622T183 686T272 709Q317 709 346 691T387 642L397 703H486L425 353H336L346 414Q325 384 290 366T209 347Q147 347 109 387T70 493Q70 511 73 530Q82 582 111 622ZM368 537T368
554Q368 594 345 617T285 640Q255 640 227 624T181 577T163 504Q163 463 186 440T246 416Q288 416 322 446T366 528Q368 537 368 554Z" />
<glyph unicode="&#xab;" glyph-name="guillemotleft" horiz-adv-x="489" d="M106 120L45 295L168 470H278L151 295L216 120H106ZM298 120L237 295L360 470H470L343 295L408 120H298Z" />
<glyph unicode="&#xac;" glyph-name="logicalnot" horiz-adv-x="748" d="M719 435L679 208H565L589 346H50L66 435H719Z" />
<glyph unicode="&#xad;" glyph-name="uni00AD" horiz-adv-x="585" d="M519 410L502 314H91L108 410H519Z" />
<glyph unicode="&#xae;" glyph-name="registered" horiz-adv-x="517" d="M415 705T462 659T510 537Q510 524 506 496Q495 436 460 389T373 314T261 287Q181 287 133 333T85 454Q85 476 89 496Q99 556 134 603T222 678T335 705Q415 705 462 659ZM460 516T460 532Q460
590 425 624T327 659Q254 659 203 614T139 496Q136 477 136 460Q136 401 171 367T269 333Q341 333 392 378T457 496Q460 516 460 532ZM363 606T380 591T398 549Q398 522 384 502T345 473L383 391H307L277 466H270L256 391H193L231 606H332Q363 606 380 591ZM279
519H312Q329 519 332 534V536Q332 548 317 548H284L279 519Z" />
<glyph unicode="&#xaf;" glyph-name="overscore" horiz-adv-x="386" d="M451 720L436 635H70L85 720H451Z" />
<glyph unicode="&#xb0;" glyph-name="degree" horiz-adv-x="427" d="M83 605T143 653T286 702Q357 702 400 664T443 561Q443 543 440 525Q431 472 400 432T321 369T221 347Q150 347 108 385T66 488Q66 506 69 525Q83 605 143 653ZM352 540T352 552Q352 592 330
614T273 637Q234 637 201 608T159 525Q156 510 156 496Q156 456 177 435T232 414Q272 414 306 443T349 525Q352 540 352 552Z" />
<glyph unicode="&#xb1;" glyph-name="plusminus" horiz-adv-x="717" d="M427 369L401 225H601L583 124H74L92 225H292L318 369H117L135 471H336L362 621H471L445 471H644L626 369H427Z" />
<glyph unicode="&#xb2;" glyph-name="twosuperior" horiz-adv-x="340" d="M344 561T318 534T234 471L153 424H321L308 352H39L51 418L173 497Q210 523 230 545T256 593Q257 597 257 604Q257 623 248 633T221 643Q203 643 190 633T172 605H82Q93 653 133 682T236
711Q291 711 322 683T353 615Q353 609 351 597Q344 561 318 534Z" />
<glyph unicode="&#xb3;" glyph-name="threesuperior" horiz-adv-x="342" d="M89 654T133 682T240 711Q293 711 327 685T362 620Q362 585 341 562T287 529L286 527Q309 518 323 501T337 460Q337 429 315 403T256 362T172 347Q114 347 80 372T46 441Q46 452 47 457H135Q135
435 147 424T182 413Q208 413 225 427T243 466Q243 482 231 491T196 501H159L169 559H203Q230 559 247 572T265 610Q265 626 254 635T221 644Q178 644 163 609H78Q89 654 133 682Z" />
<glyph unicode="&#xb4;" glyph-name="acute" horiz-adv-x="241" d="M303 699L62 590L77 674L320 796L303 699Z" />
<glyph unicode="&#xb5;" glyph-name="uni00B5" horiz-adv-x="654" d="M624 551L527 0H413L428 86Q394 40 344 16T236 -8Q175 -8 140 24L90 -262H-23L120 551H233L179 243Q175 223 175 202Q175 147 205 119T290 90Q352 90 395 126T454 233L510 551H624Z" />
<glyph unicode="&#xb6;" glyph-name="paragraph" horiz-adv-x="630" d="M503 0H402L509 606H442L335 0H234L284 282H270Q167 282 116 327T65 446Q65 469 69 488Q85 578 155 636T343 695H626L503 0Z" />
<glyph unicode="&#xb7;" glyph-name="middot" horiz-adv-x="244" d="M45 262T28 279T11 322Q11 357 37 382T98 408Q125 408 141 391T158 348Q158 313 132 288T72 262Q45 262 28 279Z" />
<glyph unicode="&#xb8;" glyph-name="cedilla" horiz-adv-x="279" d="M130 -48T161 -70T192 -132Q192 -191 149 -226T44 -262H-88L-75 -190H34Q66 -190 81 -180T97 -143Q97 -127 85 -122T47 -116H-8L14 7H89L79 -48Q130 -48 161 -70Z" />
<glyph unicode="&#xb9;" glyph-name="onesuperior" horiz-adv-x="209" d="M80 636L92 704H235L173 352H84L134 636H80Z" />
<glyph unicode="&#xba;" glyph-name="ordmasculine" horiz-adv-x="444" d="M87 610T148 659T292 709Q366 709 411 670T457 564Q457 546 454 528Q445 475 413 434T334 370T233 347Q160 347 115 387T69 494Q69 510 72 528Q87 610 148 659ZM365 542T365 555Q365 597
341 620T281 643Q240 643 207 613T164 527Q162 517 162 500Q162 459 185 437T244 414Q285 414 319 444T362 527Q365 542 365 555Z" />
<glyph unicode="&#xbb;" glyph-name="guillemotright" horiz-adv-x="489" d="M145 295L81 470H190L252 295L128 120H19L145 295ZM337 295L273 470H382L444 295L320 120H211L337 295Z" />
<glyph unicode="&#xbc;" glyph-name="onequarter" horiz-adv-x="682" d="M94 636L106 704H249L187 352H98L148 636H94ZM624 696L119 0H11L517 696H624ZM603 67H558L546 0H457L469 67H283L292 117L485 353H609L568 123H613L603 67ZM510 285L382 123H481L510 285Z" />
<glyph unicode="&#xbd;" glyph-name="onehalf" horiz-adv-x="701" d="M148 636H94L106 704H249L187 352H98L148 636ZM613 696L119 0H11L505 696H613ZM703 208T677 181T593 118L512 71H680L667 -1H398L410 65L532 144Q569 170 589 192T615 240Q616 244 616 251Q616
270 607 280T580 290Q562 290 549 280T531 252H441Q452 300 492 329T595 358Q650 358 681 330T712 262Q712 256 710 244Q703 208 677 181Z" />
<glyph unicode="&#xbe;" glyph-name="threequarters" horiz-adv-x="742" d="M104 654T148 682T255 711Q308 711 342 685T377 620Q377 585 356 562T302 529L301 527Q324 518 338 501T352 460Q352 429 330 403T271 362T187 347Q129 347 95 372T61 441Q61 452 62
457H150Q150 435 162 424T197 413Q223 413 240 427T258 466Q258 482 246 491T211 501H174L184 559H218Q245 559 262 572T280 610Q280 626 269 635T236 644Q193 644 178 609H93Q104 654 148 682ZM719 696L194 0H87L612 696H719ZM676 67H631L619 0H530L542 67H356L365
117L558 353H682L641 123H686L676 67ZM583 285L455 123H554L583 285Z" />
<glyph unicode="&#xbf;" glyph-name="questiondown" horiz-adv-x="538" d="M421 561T437 545T454 501Q454 466 428 441T367 415Q340 415 324 432T307 475Q307 510 333 535T393 561Q421 561 437 545ZM114 -151T63 -108T11 14Q11 38 15 58Q33 159 106 210T285 261L303
340H402L379 183H346Q250 183 194 157T124 58Q122 49 122 32Q122 -9 147 -32T219 -55Q273 -55 309 -26T355 55H462Q452 -5 416 -52T325 -125T203 -151Q114 -151 63 -108Z" />
<glyph unicode="&#xc0;" glyph-name="Agrave" horiz-adv-x="697" d="M467 142H176L101 0H-18L354 696H486L612 0H492L467 142ZM452 231L395 558L223 231H452ZM545 819L530 735L329 844L346 941L545 819Z" />
<glyph unicode="&#xc1;" glyph-name="Aacute" horiz-adv-x="697" d="M467 142H176L101 0H-18L354 696H486L612 0H492L467 142ZM452 231L395 558L223 231H452ZM550 844L309 735L324 819L567 941L550 844Z" />
<glyph unicode="&#xc2;" glyph-name="Acircumflex" horiz-adv-x="697" d="M467 142H176L101 0H-18L354 696H486L612 0H492L467 142ZM452 231L395 558L223 231H452ZM444 827L285 741L301 830L459 913L587 830L571 741L444 827Z" />
<glyph unicode="&#xc3;" glyph-name="Atilde" horiz-adv-x="697" d="M467 142H176L101 0H-18L354 696H486L612 0H492L467 142ZM452 231L395 558L223 231H452ZM285 811T320 840T401 870Q420 870 432 865T464 846Q477 836 486 831T509 826Q526 826 540 836T560 868H624Q606
810 571 781T490 751Q471 751 458 757T427 776Q412 787 403 791T382 796Q365 796 352 785T332 753H268Q285 811 320 840Z" />
<glyph unicode="&#xc4;" glyph-name="Adieresis" horiz-adv-x="697" d="M467 142H176L101 0H-18L354 696H486L612 0H492L467 142ZM452 231L395 558L223 231H452ZM325 765T311 779T296 814Q296 842 317 863T368 885Q390 885 404 871T418 836Q418 807 397 786T347
765Q325 765 311 779ZM497 765T483 779T468 814Q468 842 489 863T540 885Q562 885 576 871T590 836Q590 807 569 786T519 765Q497 765 483 779Z" />
<glyph unicode="&#xc5;" glyph-name="Aring" horiz-adv-x="697" d="M467 142H176L101 0H-18L354 696H486L612 0H492L467 142ZM452 231L395 558L223 231H452ZM349 909T386 939T469 969Q510 969 535 946T560 882Q560 843 542 813T494 767T430 750Q390 750 364 773T338
837Q338 843 340 859Q349 909 386 939ZM502 890T490 900T458 911Q437 911 420 897T398 860Q397 857 397 851Q397 832 409 821T440 809Q465 809 483 827T502 871Q502 890 490 900Z" />
<glyph unicode="&#xc6;" glyph-name="AE" horiz-adv-x="921" d="M641 607L604 396H843L828 308H589L550 89H819L803 0H420L445 142H186L84 0H-40L466 696H926L910 607H641ZM529 617L251 231H461L529 617Z" />
<glyph unicode="&#xc7;" glyph-name="Ccedilla" horiz-adv-x="773" d="M420 97T473 123T562 202H699Q647 110 562 57T375 -5L367 -48Q418 -48 449 -70T480 -132Q480 -191 437 -226T332 -262H200L213 -190H322Q354 -190 369 -180T385 -143Q385 -127 373 -122T335
-116H280L300 -4Q224 4 165 41T74 141T41 281Q41 315 47 349Q65 451 126 532T277 658T464 704Q575 704 652 650T751 495H614Q595 547 552 573T446 600Q377 600 318 569T218 481T164 349Q159 316 159 293Q159 203 213 150T357 97Q420 97 473 123Z" />
<glyph unicode="&#xc8;" glyph-name="Egrave" horiz-adv-x="524" d="M244 607L207 396H447L432 308H192L153 89H423L407 0H23L146 696H530L514 607H244ZM458 819L443 735L242 844L259 941L458 819Z" />
<glyph unicode="&#xc9;" glyph-name="Eacute" horiz-adv-x="524" d="M244 607L207 396H447L432 308H192L153 89H423L407 0H23L146 696H530L514 607H244ZM463 844L222 735L237 819L480 941L463 844Z" />
<glyph unicode="&#xca;" glyph-name="Ecircumflex" horiz-adv-x="524" d="M244 607L207 396H447L432 308H192L153 89H423L407 0H23L146 696H530L514 607H244ZM357 827L198 741L214 830L372 913L500 830L484 741L357 827Z" />
<glyph unicode="&#xcb;" glyph-name="Edieresis" horiz-adv-x="524" d="M244 607L207 396H447L432 308H192L153 89H423L407 0H23L146 696H530L514 607H244ZM238 765T224 779T209 814Q209 842 230 863T281 885Q303 885 317 871T331 836Q331 807 310 786T260 765Q238
765 224 779ZM410 765T396 779T381 814Q381 842 402 863T453 885Q475 885 489 871T503 836Q503 807 482 786T432 765Q410 765 396 779Z" />
<glyph unicode="&#xcc;" glyph-name="Igrave" horiz-adv-x="264" d="M260 695L137 0H23L146 695H260ZM328 819L313 735L112 844L129 941L328 819Z" />
<glyph unicode="&#xcd;" glyph-name="Iacute" horiz-adv-x="264" d="M260 695L137 0H23L146 695H260ZM333 844L92 735L107 819L350 941L333 844Z" />
<glyph unicode="&#xce;" glyph-name="Icircumflex" horiz-adv-x="264" d="M260 695L137 0H23L146 695H260ZM227 827L68 741L84 830L242 913L370 830L354 741L227 827Z" />
<glyph unicode="&#xcf;" glyph-name="Idieresis" horiz-adv-x="264" d="M260 695L137 0H23L146 695H260ZM108 765T94 779T79 814Q79 842 100 863T151 885Q173 885 187 871T201 836Q201 807 180 786T130 765Q108 765 94 779ZM280 765T266 779T251 814Q251 842 272
863T323 885Q345 885 359 871T373 836Q373 807 352 786T302 765Q280 765 266 779Z" />
<glyph unicode="&#xd0;" glyph-name="Eth" horiz-adv-x="720" d="M482 695T552 662T660 567T698 420Q698 381 691 345Q672 239 613 161T464 42T262 0H34L86 293H9L28 398H104L157 695H385Q482 695 552 662ZM580 380T580 410Q580 502 526 552T369 603H256L220 398H398L379
293H201L165 87H278Q398 87 475 156T574 345Q580 380 580 410Z" />
<glyph unicode="&#xd1;" glyph-name="Ntilde" horiz-adv-x="721" d="M594 0H480L229 519L137 0H23L146 696H260L512 178L603 696H717L594 0ZM297 811T332 840T413 870Q432 870 444 865T476 846Q489 836 498 831T521 826Q538 826 552 836T572 868H636Q618 810 583
781T502 751Q483 751 470 757T439 776Q424 787 415 791T394 796Q377 796 364 785T344 753H280Q297 811 332 840Z" />
<glyph unicode="&#xd2;" glyph-name="Ograve" horiz-adv-x="784" d="M255 -7T188 30T84 134T47 286Q47 405 100 500T248 650T460 704Q549 704 616 667T720 564T757 412Q757 293 704 197T556 47T343 -7Q255 -7 188 30ZM441 96T504 138T603 250T639 404Q639 495
588 547T444 600Q362 600 299 559T200 447T165 293Q165 202 216 149T359 96Q441 96 504 138ZM585 827L570 743L369 852L386 949L585 827Z" />
<glyph unicode="&#xd3;" glyph-name="Oacute" horiz-adv-x="784" d="M255 -7T188 30T84 134T47 286Q47 405 100 500T248 650T460 704Q549 704 616 667T720 564T757 412Q757 293 704 197T556 47T343 -7Q255 -7 188 30ZM441 96T504 138T603 250T639 404Q639 495
588 547T444 600Q362 600 299 559T200 447T165 293Q165 202 216 149T359 96Q441 96 504 138ZM590 852L349 743L364 827L607 949L590 852Z" />
<glyph unicode="&#xd4;" glyph-name="Ocircumflex" horiz-adv-x="784" d="M255 -7T188 30T84 134T47 286Q47 405 100 500T248 650T460 704Q549 704 616 667T720 564T757 412Q757 293 704 197T556 47T343 -7Q255 -7 188 30ZM441 96T504 138T603 250T639 404Q639
495 588 547T444 600Q362 600 299 559T200 447T165 293Q165 202 216 149T359 96Q441 96 504 138ZM484 835L325 749L341 838L499 921L627 838L611 749L484 835Z" />
<glyph unicode="&#xd5;" glyph-name="Otilde" horiz-adv-x="784" d="M255 -7T188 30T84 134T47 286Q47 405 100 500T248 650T460 704Q549 704 616 667T720 564T757 412Q757 293 704 197T556 47T343 -7Q255 -7 188 30ZM441 96T504 138T603 250T639 404Q639 495
588 547T444 600Q362 600 299 559T200 447T165 293Q165 202 216 149T359 96Q441 96 504 138ZM325 819T360 848T441 878Q460 878 472 873T504 854Q517 844 526 839T549 834Q566 834 580 844T600 876H664Q646 818 611 789T530 759Q511 759 498 765T467 784Q452 795
443 799T422 804Q405 804 392 793T372 761H308Q325 819 360 848Z" />
<glyph unicode="&#xd6;" glyph-name="Odieresis" horiz-adv-x="784" d="M255 -7T188 30T84 134T47 286Q47 405 100 500T248 650T460 704Q549 704 616 667T720 564T757 412Q757 293 704 197T556 47T343 -7Q255 -7 188 30ZM441 96T504 138T603 250T639 404Q639 495
588 547T444 600Q362 600 299 559T200 447T165 293Q165 202 216 149T359 96Q441 96 504 138ZM365 773T351 787T336 822Q336 850 357 871T408 893Q430 893 444 879T458 844Q458 815 437 794T387 773Q365 773 351 787ZM537 773T523 787T508 822Q508 850 529 871T580
893Q602 893 616 879T630 844Q630 815 609 794T559 773Q537 773 523 787Z" />
<glyph unicode="&#xd7;" glyph-name="multiply" horiz-adv-x="699" d="M436 363L561 211L475 138L350 290L171 138L109 213L288 365L166 514L252 587L374 438L550 587L612 512L436 363Z" />
<glyph unicode="&#xd8;" glyph-name="Oslash" horiz-adv-x="784" d="M707 585Q757 512 757 412Q757 293 704 197T556 47T343 -7Q281 -7 229 12T138 66L65 0H-26L97 112Q47 187 47 286Q47 405 100 500T248 650T460 704Q584 704 667 631L738 696H829L707 585ZM165
235T186 193L581 553Q529 600 444 600Q362 600 299 559T200 447T165 293Q165 235 186 193ZM639 462T618 504L222 143Q274 96 359 96Q441 96 504 138T603 250T639 404Q639 462 618 504Z" />
<glyph unicode="&#xd9;" glyph-name="Ugrave" horiz-adv-x="690" d="M259 695L181 254Q177 234 177 213Q177 154 211 125T310 95Q385 95 433 135T496 254L574 695H688L610 254Q595 169 548 110T433 22T291 -7Q189 -7 126 45T62 196Q62 229 67 254L145 695H259ZM541
819L526 735L325 844L342 941L541 819Z" />
<glyph unicode="&#xda;" glyph-name="Uacute" horiz-adv-x="690" d="M259 695L181 254Q177 234 177 213Q177 154 211 125T310 95Q385 95 433 135T496 254L574 695H688L610 254Q595 169 548 110T433 22T291 -7Q189 -7 126 45T62 196Q62 229 67 254L145 695H259ZM546
844L305 735L320 819L563 941L546 844Z" />
<glyph unicode="&#xdb;" glyph-name="Ucircumflex" horiz-adv-x="690" d="M259 695L181 254Q177 234 177 213Q177 154 211 125T310 95Q385 95 433 135T496 254L574 695H688L610 254Q595 169 548 110T433 22T291 -7Q189 -7 126 45T62 196Q62 229 67 254L145 695H259ZM440
827L281 741L297 830L455 913L583 830L567 741L440 827Z" />
<glyph unicode="&#xdc;" glyph-name="Udieresis" horiz-adv-x="690" d="M259 695L181 254Q177 234 177 213Q177 154 211 125T310 95Q385 95 433 135T496 254L574 695H688L610 254Q595 169 548 110T433 22T291 -7Q189 -7 126 45T62 196Q62 229 67 254L145 695H259ZM321
765T307 779T292 814Q292 842 313 863T364 885Q386 885 400 871T414 836Q414 807 393 786T343 765Q321 765 307 779ZM493 765T479 779T464 814Q464 842 485 863T536 885Q558 885 572 871T586 836Q586 807 565 786T515 765Q493 765 479 779Z" />
<glyph unicode="&#xdd;" glyph-name="Yacute" horiz-adv-x="605" d="M661 695L353 252L308 0H194L239 252L86 695H213L313 356L533 695H661ZM504 844L263 735L278 819L521 941L504 844Z" />
<glyph unicode="&#xde;" glyph-name="Thorn" horiz-adv-x="595" d="M561 295T528 248T434 172T288 142H162L137 0H23L146 696H259L234 555H361Q466 555 520 509T575 387Q575 374 571 348Q561 295 528 248ZM369 231T406 262T454 348Q456 358 456 376Q456 419 429
442T346 466H220L178 231H304Q369 231 406 262Z" />
<glyph unicode="&#xdf;" glyph-name="germandbls" horiz-adv-x="682" d="M121 654T193 713T389 773Q455 773 501 753T569 700T592 626Q592 568 560 528T473 444Q444 422 431 409T418 382Q418 367 436 355T511 322Q573 300 600 266T627 177Q627 123 597 80T514
14T396 -10Q311 -10 262 32T212 146Q212 155 214 173H330Q329 167 329 155Q329 120 349 101T409 81Q456 81 481 101T507 163Q507 187 490 203T430 235Q361 259 330 287T298 356Q298 395 321 424T392 494Q433 528 454 553T475 608Q475 642 448 660T371 678Q300 678
264 645T216 547L120 0H6L105 562Q121 654 193 713Z" />
<glyph unicode="&#xe0;" glyph-name="agrave" horiz-adv-x="678" d="M49 361T94 425T206 524T344 560Q409 560 453 535T519 471L533 551H648L551 0H436L451 82Q415 43 361 17T242 -9Q180 -9 132 19T56 98T28 217Q28 247 34 278Q49 361 94 425ZM489 295T489 317Q489
384 450 422T351 461Q307 461 265 440T192 377T151 278Q147 259 147 237Q147 169 186 130T285 90Q329 90 371 112T444 176T485 276Q489 295 489 317ZM509 674L494 590L293 699L310 796L509 674Z" />
<glyph unicode="&#xe1;" glyph-name="aacute" horiz-adv-x="678" d="M49 361T94 425T206 524T344 560Q409 560 453 535T519 471L533 551H648L551 0H436L451 82Q415 43 361 17T242 -9Q180 -9 132 19T56 98T28 217Q28 247 34 278Q49 361 94 425ZM489 295T489 317Q489
384 450 422T351 461Q307 461 265 440T192 377T151 278Q147 259 147 237Q147 169 186 130T285 90Q329 90 371 112T444 176T485 276Q489 295 489 317ZM514 699L273 590L288 674L531 796L514 699Z" />
<glyph unicode="&#xe2;" glyph-name="acircumflex" horiz-adv-x="678" d="M49 361T94 425T206 524T344 560Q409 560 453 535T519 471L533 551H648L551 0H436L451 82Q415 43 361 17T242 -9Q180 -9 132 19T56 98T28 217Q28 247 34 278Q49 361 94 425ZM489 295T489
317Q489 384 450 422T351 461Q307 461 265 440T192 377T151 278Q147 259 147 237Q147 169 186 130T285 90Q329 90 371 112T444 176T485 276Q489 295 489 317ZM408 682L249 596L265 685L423 768L551 685L535 596L408 682Z" />
<glyph unicode="&#xe3;" glyph-name="atilde" horiz-adv-x="678" d="M49 361T94 425T206 524T344 560Q409 560 453 535T519 471L533 551H648L551 0H436L451 82Q415 43 361 17T242 -9Q180 -9 132 19T56 98T28 217Q28 247 34 278Q49 361 94 425ZM489 295T489 317Q489
384 450 422T351 461Q307 461 265 440T192 377T151 278Q147 259 147 237Q147 169 186 130T285 90Q329 90 371 112T444 176T485 276Q489 295 489 317ZM249 666T284 695T365 725Q384 725 396 720T428 701Q441 691 450 686T473 681Q490 681 504 691T524 723H588Q570
665 535 636T454 606Q435 606 422 612T391 631Q376 642 367 646T346 651Q329 651 316 640T296 608H232Q249 666 284 695Z" />
<glyph unicode="&#xe4;" glyph-name="adieresis" horiz-adv-x="678" d="M49 361T94 425T206 524T344 560Q409 560 453 535T519 471L533 551H648L551 0H436L451 82Q415 43 361 17T242 -9Q180 -9 132 19T56 98T28 217Q28 247 34 278Q49 361 94 425ZM489 295T489
317Q489 384 450 422T351 461Q307 461 265 440T192 377T151 278Q147 259 147 237Q147 169 186 130T285 90Q329 90 371 112T444 176T485 276Q489 295 489 317ZM289 620T275 634T260 669Q260 697 281 718T332 740Q354 740 368 726T382 691Q382 662 361 641T311 620Q289
620 275 634ZM461 620T447 634T432 669Q432 697 453 718T504 740Q526 740 540 726T554 691Q554 662 533 641T483 620Q461 620 447 634Z" />
<glyph unicode="&#xe5;" glyph-name="aring" horiz-adv-x="678" d="M49 361T94 425T206 524T344 560Q409 560 453 535T519 471L533 551H648L551 0H436L451 82Q415 43 361 17T242 -9Q180 -9 132 19T56 98T28 217Q28 247 34 278Q49 361 94 425ZM489 295T489 317Q489
384 450 422T351 461Q307 461 265 440T192 377T151 278Q147 259 147 237Q147 169 186 130T285 90Q329 90 371 112T444 176T485 276Q489 295 489 317ZM313 764T350 794T433 824Q474 824 499 801T524 737Q524 698 506 668T458 622T394 605Q354 605 328 628T302 692Q302
698 304 714Q313 764 350 794ZM466 745T454 755T422 766Q401 766 384 752T362 715Q361 712 361 706Q361 687 373 676T404 664Q429 664 447 682T466 726Q466 745 454 755Z" />
<glyph unicode="&#xe6;" glyph-name="ae" horiz-adv-x="1085" d="M902 560T951 533T1026 458T1053 346Q1053 323 1048 291Q1044 269 1034 237H595Q593 190 612 156T663 105T733 87Q787 87 826 108T886 164H1010Q972 88 900 40T736 -9Q676 -9 629 16T559 83L544
0H437L452 83Q412 42 358 17T244 -9Q181 -9 132 19T56 98T28 217Q28 247 34 278Q49 361 95 425T208 525T350 560Q469 560 521 473L534 551H641L628 473Q675 519 725 539T836 560Q902 560 951 533ZM937 335T937 343Q937 398 900 431T800 464Q738 464 684 424T609
319H935Q937 335 937 343ZM489 295T489 317Q489 384 450 422T351 461Q307 461 265 440T192 377T151 278Q147 259 147 237Q147 169 186 130T285 90Q329 90 371 112T444 176T485 276Q489 295 489 317Z" />
<glyph unicode="&#xe7;" glyph-name="ccedilla" horiz-adv-x="600" d="M370 87T417 174H540Q504 98 439 50T288 -7L281 -48Q332 -48 363 -70T394 -132Q394 -191 351 -226T246 -262H114L127 -190H236Q268 -190 283 -180T299 -143Q299 -127 287 -122T249 -116H194L214
-6Q128 5 78 63T28 213Q28 243 34 276Q49 361 94 425T207 525T354 560Q454 560 511 513T576 377H453Q445 418 416 441T337 464Q267 464 217 415T151 276Q146 244 146 224Q146 158 179 123T271 87Q370 87 417 174Z" />
<glyph unicode="&#xe8;" glyph-name="egrave" horiz-adv-x="617" d="M462 560T523 502T585 346Q585 323 580 291Q576 269 566 237H145Q144 230 144 216Q144 157 180 122T276 87Q369 87 419 164H542Q504 88 430 40T259 -9Q190 -9 138 18T57 95T28 214Q28 243 34
276Q49 361 95 425T209 525T359 560Q462 560 523 502ZM468 337T468 345Q468 400 432 432T337 464Q276 464 227 425T160 319H466Q468 337 468 345ZM479 674L464 590L263 699L280 796L479 674Z" />
<glyph unicode="&#xe9;" glyph-name="eacute" horiz-adv-x="617" d="M462 560T523 502T585 346Q585 323 580 291Q576 269 566 237H145Q144 230 144 216Q144 157 180 122T276 87Q369 87 419 164H542Q504 88 430 40T259 -9Q190 -9 138 18T57 95T28 214Q28 243 34
276Q49 361 95 425T209 525T359 560Q462 560 523 502ZM468 337T468 345Q468 400 432 432T337 464Q276 464 227 425T160 319H466Q468 337 468 345ZM484 699L243 590L258 674L501 796L484 699Z" />
<glyph unicode="&#xea;" glyph-name="ecircumflex" horiz-adv-x="617" d="M462 560T523 502T585 346Q585 323 580 291Q576 269 566 237H145Q144 230 144 216Q144 157 180 122T276 87Q369 87 419 164H542Q504 88 430 40T259 -9Q190 -9 138 18T57 95T28 214Q28 243
34 276Q49 361 95 425T209 525T359 560Q462 560 523 502ZM468 337T468 345Q468 400 432 432T337 464Q276 464 227 425T160 319H466Q468 337 468 345ZM378 682L219 596L235 685L393 768L521 685L505 596L378 682Z" />
<glyph unicode="&#xeb;" glyph-name="edieresis" horiz-adv-x="617" d="M462 560T523 502T585 346Q585 323 580 291Q576 269 566 237H145Q144 230 144 216Q144 157 180 122T276 87Q369 87 419 164H542Q504 88 430 40T259 -9Q190 -9 138 18T57 95T28 214Q28 243
34 276Q49 361 95 425T209 525T359 560Q462 560 523 502ZM468 337T468 345Q468 400 432 432T337 464Q276 464 227 425T160 319H466Q468 337 468 345ZM259 620T245 634T230 669Q230 697 251 718T302 740Q324 740 338 726T352 691Q352 662 331 641T281 620Q259 620
245 634ZM431 620T417 634T402 669Q402 697 423 718T474 740Q496 740 510 726T524 691Q524 662 503 641T453 620Q431 620 417 634Z" />
<glyph unicode="&#xec;" glyph-name="igrave" horiz-adv-x="264" d="M234 551L137 0H23L120 551H234ZM302 674L287 590L86 699L103 796L302 674Z" />
<glyph unicode="&#xed;" glyph-name="iacute" horiz-adv-x="264" d="M234 551L137 0H23L120 551H234ZM307 699L66 590L81 674L324 796L307 699Z" />
<glyph unicode="&#xee;" glyph-name="icircumflex" horiz-adv-x="264" d="M234 551L137 0H23L120 551H234ZM457 682L298 596L314 685L472 768L600 685L584 596L457 682Z" />
<glyph unicode="&#xef;" glyph-name="idieresis" horiz-adv-x="264" d="M234 551L137 0H23L120 551H234ZM338 620T324 634T309 669Q309 697 330 718T381 740Q403 740 417 726T431 691Q431 662 410 641T360 620Q338 620 324 634ZM510 620T496 634T481 669Q481 697
502 718T553 740Q575 740 589 726T603 691Q603 662 582 641T532 620Q510 620 496 634Z" />
<glyph unicode="&#xf0;" glyph-name="eth" horiz-adv-x="636" d="M620 682L534 655Q611 540 611 405Q611 365 603 317Q585 212 535 139T414 28T261 -9Q192 -9 139 18T57 96T28 215Q28 245 34 276Q49 360 96 425T211 525T354 560Q403 560 438 546T503 503Q487 567
446 628L316 588L327 649L410 675Q383 707 348 740H464Q482 722 499 702L630 743L620 682ZM483 297T483 321Q483 389 444 426T346 464Q302 464 262 443T192 379T151 276Q147 253 147 228Q147 161 183 124T278 87Q322 87 364 109T437 173T479 276Q483 297 483 321Z"
/>
<glyph unicode="&#xf1;" glyph-name="ntilde" horiz-adv-x="649" d="M487 560T538 514T590 380Q590 358 585 325L527 0H414L469 308Q473 336 473 348Q473 403 443 432T358 461Q293 461 249 422T192 308V311L137 0H23L120 551H234L223 487Q257 521 303 540T400
560Q487 560 538 514ZM245 666T280 695T361 725Q380 725 392 720T424 701Q437 691 446 686T469 681Q486 681 500 691T520 723H584Q566 665 531 636T450 606Q431 606 418 612T387 631Q372 642 363 646T342 651Q325 651 312 640T292 608H228Q245 666 280 695Z" />
<glyph unicode="&#xf2;" glyph-name="ograve" horiz-adv-x="638" d="M194 -9T141 20T59 102T29 223Q29 316 72 393T192 515T363 560Q433 560 487 531T571 449T602 327Q602 234 557 157T435 36T264 -9Q194 -9 141 20ZM335 87T382 119T457 205T484 320Q484 389 445
426T347 464Q289 464 244 432T173 345T147 228Q147 161 183 124T278 87Q335 87 382 119ZM488 683L473 599L272 708L289 805L488 683Z" />
<glyph unicode="&#xf3;" glyph-name="oacute" horiz-adv-x="638" d="M194 -9T141 20T59 102T29 223Q29 316 72 393T192 515T363 560Q433 560 487 531T571 449T602 327Q602 234 557 157T435 36T264 -9Q194 -9 141 20ZM335 87T382 119T457 205T484 320Q484 389 445
426T347 464Q289 464 244 432T173 345T147 228Q147 161 183 124T278 87Q335 87 382 119ZM493 708L252 599L267 683L510 805L493 708Z" />
<glyph unicode="&#xf4;" glyph-name="ocircumflex" horiz-adv-x="638" d="M194 -9T141 20T59 102T29 223Q29 316 72 393T192 515T363 560Q433 560 487 531T571 449T602 327Q602 234 557 157T435 36T264 -9Q194 -9 141 20ZM335 87T382 119T457 205T484 320Q484
389 445 426T347 464Q289 464 244 432T173 345T147 228Q147 161 183 124T278 87Q335 87 382 119ZM387 691L228 605L244 694L402 777L530 694L514 605L387 691Z" />
<glyph unicode="&#xf5;" glyph-name="otilde" horiz-adv-x="638" d="M194 -9T141 20T59 102T29 223Q29 316 72 393T192 515T363 560Q433 560 487 531T571 449T602 327Q602 234 557 157T435 36T264 -9Q194 -9 141 20ZM335 87T382 119T457 205T484 320Q484 389 445
426T347 464Q289 464 244 432T173 345T147 228Q147 161 183 124T278 87Q335 87 382 119ZM228 675T263 704T344 734Q363 734 375 729T407 710Q420 700 429 695T452 690Q469 690 483 700T503 732H567Q549 674 514 645T433 615Q414 615 401 621T370 640Q355 651 346
655T325 660Q308 660 295 649T275 617H211Q228 675 263 704Z" />
<glyph unicode="&#xf6;" glyph-name="odieresis" horiz-adv-x="638" d="M194 -9T141 20T59 102T29 223Q29 316 72 393T192 515T363 560Q433 560 487 531T571 449T602 327Q602 234 557 157T435 36T264 -9Q194 -9 141 20ZM335 87T382 119T457 205T484 320Q484 389
445 426T347 464Q289 464 244 432T173 345T147 228Q147 161 183 124T278 87Q335 87 382 119ZM268 629T254 643T239 678Q239 706 260 727T311 749Q333 749 347 735T361 700Q361 671 340 650T290 629Q268 629 254 643ZM440 629T426 643T411 678Q411 706 432 727T483
749Q505 749 519 735T533 700Q533 671 512 650T462 629Q440 629 426 643Z" />
<glyph unicode="&#xf7;" glyph-name="divide" horiz-adv-x="679" d="M347 505T330 522T313 565Q313 600 339 625T400 651Q427 651 443 634T460 591Q460 556 434 531T374 505Q347 505 330 522ZM621 412L603 311H93L111 412H621ZM267 75T250 92T233 135Q233 170
259 195T320 221Q347 221 363 204T380 161Q380 126 354 101T294 75Q267 75 250 92Z" />
<glyph unicode="&#xf8;" glyph-name="oslash" horiz-adv-x="638" d="M561 465Q602 407 602 327Q602 234 557 157T435 36T264 -9Q169 -9 104 45L55 0H-24L69 85Q29 143 29 223Q29 316 72 393T192 515T363 560Q461 560 525 505L576 551H655L561 465ZM147 196T157
166L443 429Q405 464 347 464Q289 464 244 432T173 345T147 228Q147 196 157 166ZM484 354T473 384L187 121Q221 87 278 87Q335 87 382 119T457 205T484 320Q484 354 473 384Z" />
<glyph unicode="&#xf9;" glyph-name="ugrave" horiz-adv-x="649" d="M619 551L522 0H408L419 65Q386 31 340 12T244 -8Q157 -8 105 39T53 172Q53 195 58 227L115 551H228L174 244Q170 216 170 204Q170 149 200 120T285 91Q348 91 392 128T450 237L505 551H619ZM495
674L480 590L279 699L296 796L495 674Z" />
<glyph unicode="&#xfa;" glyph-name="uacute" horiz-adv-x="649" d="M619 551L522 0H408L419 65Q386 31 340 12T244 -8Q157 -8 105 39T53 172Q53 195 58 227L115 551H228L174 244Q170 216 170 204Q170 149 200 120T285 91Q348 91 392 128T450 237L505 551H619ZM500
699L259 590L274 674L517 796L500 699Z" />
<glyph unicode="&#xfb;" glyph-name="ucircumflex" horiz-adv-x="649" d="M619 551L522 0H408L419 65Q386 31 340 12T244 -8Q157 -8 105 39T53 172Q53 195 58 227L115 551H228L174 244Q170 216 170 204Q170 149 200 120T285 91Q348 91 392 128T450 237L505 551H619ZM394
682L235 596L251 685L409 768L537 685L521 596L394 682Z" />
<glyph unicode="&#xfc;" glyph-name="udieresis" horiz-adv-x="649" d="M619 551L522 0H408L419 65Q386 31 340 12T244 -8Q157 -8 105 39T53 172Q53 195 58 227L115 551H228L174 244Q170 216 170 204Q170 149 200 120T285 91Q348 91 392 128T450 237L505 551H619ZM275
620T261 634T246 669Q246 697 267 718T318 740Q340 740 354 726T368 691Q368 662 347 641T297 620Q275 620 261 634ZM447 620T433 634T418 669Q418 697 439 718T490 740Q512 740 526 726T540 691Q540 662 519 641T469 620Q447 620 433 634Z" />
<glyph unicode="&#xfd;" glyph-name="yacute" horiz-adv-x="582" d="M182 551L263 131L498 551H616L136 -259H18L177 9L55 551H182ZM466 699L225 590L240 674L483 796L466 699Z" />
<glyph unicode="&#xfe;" glyph-name="thorn" horiz-adv-x="678" d="M253 501T308 530T428 560Q491 560 540 533T616 456T643 339Q643 310 637 278Q622 195 577 130T466 28T328 -9Q263 -9 219 21T155 103L91 -262H-23L154 740H268L217 453Q253 501 308 530ZM525
297T525 319Q525 386 486 423T386 461Q343 461 301 439T227 375T186 276Q182 257 182 235Q182 168 221 129T320 90Q364 90 406 112T480 178T521 278Q525 297 525 319Z" />
<glyph unicode="&#xff;" glyph-name="ydieresis" horiz-adv-x="582" d="M182 551L263 131L498 551H616L136 -259H18L177 9L55 551H182ZM241 620T227 634T212 669Q212 697 233 718T284 740Q306 740 320 726T334 691Q334 662 313 641T263 620Q241 620 227 634ZM413
620T399 634T384 669Q384 697 405 718T456 740Q478 740 492 726T506 691Q506 662 485 641T435 620Q413 620 399 634Z" />
<glyph unicode="&#x2013;" glyph-name="endash" horiz-adv-x="708" d="M643 410L626 314H91L108 410H643Z" />
<glyph unicode="&#x2014;" glyph-name="emdash" horiz-adv-x="924" d="M858 410L841 314H91L108 410H858Z" />
<glyph unicode="&#x2018;" glyph-name="quoteleft" horiz-adv-x="242" d="M164 457H40L187 695H267L164 457Z" />
<glyph unicode="&#x2019;" glyph-name="quoteright" horiz-adv-x="242" d="M184 695H308L161 457H81L184 695Z" />
<glyph unicode="&#x201a;" glyph-name="quotesinglbase" horiz-adv-x="217" d="M38 136H162L15 -102H-65L38 136Z" />
<glyph unicode="&#x201c;" glyph-name="quotedblleft" horiz-adv-x="422" d="M164 457H40L187 695H267L164 457ZM344 457H220L367 695H447L344 457Z" />
<glyph unicode="&#x201d;" glyph-name="quotedblright" horiz-adv-x="422" d="M184 695H308L161 457H81L184 695ZM364 695H488L341 457H261L364 695Z" />
<glyph unicode="&#x201e;" glyph-name="quotedblbase" horiz-adv-x="404" d="M38 136H162L15 -102H-65L38 136ZM225 136H349L202 -102H122L225 136Z" />
<glyph unicode="&#x2022;" glyph-name="bullet" horiz-adv-x="462" d="M166 203T136 233T105 309Q105 351 127 386T185 443T260 464Q309 464 340 434T371 357Q371 316 349 281T291 224T214 203Q166 203 136 233Z" />
<glyph unicode="&#x2039;" glyph-name="guilsinglleft" horiz-adv-x="297" d="M106 120L45 295L168 470H278L151 295L216 120H106Z" />
<glyph unicode="&#x203a;" glyph-name="guilsinglright" horiz-adv-x="297" d="M145 295L81 470H190L252 295L128 120H19L145 295Z" />
</font>
</defs>
</svg>
